#TITLE:BAEK IL GI DO;
#SUBTITLE:;
#ARTIST:S#ARP;
#TITLETRANSLIT:;
#SUBTITLETRANSLIT:;
#ARTISTTRANSLIT:;
#CREDIT:;
#BANNER:;
#BACKGROUND:;
#LYRICSPATH:;
#CDTITLE:;
#MUSIC:Baek Il Gi Do.mp3;
#MUSICLENGTH:98.612;
#OFFSET:-0.220;
#SAMPLESTART:82.005;
#SAMPLELENGTH:12.000;
#SELECTABLE:YES;
#BPMS:0.000=170.000;
#STOPS:;
#BGCHANGES:;
#FIRSTBEAT:12.000;

#LASTBEAT:272.000;

#SONGFILENAME:Songs/EXTRA/Baek Il Gi Do/Baek Il Gi Do.sm;

#HASMUSIC:1;

#HASBANNER:0;


//---------------dance-single - BASIC----------------
#NOTES:
     dance-single:
     BASIC:
     easy:
     7:
     0.183,0.276,0.041,0.061,0.000,116.000,4.000,6.000,0.000,0.000:

0000
0000
0000
0000
,
0000
0000
0000
0000
,
0000
0000
0000
0000
,
0000
0000
0000
0000
,
0000
0000
0000
0000
,
0010
0000
0000
0000
,
1000
0000
0000
0000
,
0001
0000
0000
0000
,
0001
0000
0000
0001
,
1000
0000
0000
1000
,
0010
0000
0000
0100
,
0010
0000
0000
0010
,
0001
0000
0000
1000
,
0100
0000
0000
0000
,
0001
0000
0000
0001
,
0100
0000
0000
0010
,
0100
0010
0100
0010
,
1000
0000
0000
0000
,
0001
0000
0000
0010
,
1000
0000
0000
0000
,
0100
0000
0000
0001
,
0001
0000
0000
0000
,
1000
0000
0000
0010
,
0010
0000
0000
0000
,
0100
0000
0001
0000
,
2000
0000
0010
0000
,
0010
0000
0010
3000
,
0002
0000
0010
0000
,
0010
0000
0010
0003
,
2000
3000
0010
0000
,
0200
0300
0010
0000
,
0001
1000
0100
1000
,
0001
1000
1000
0000
,
0010
0000
0100
0000
,
0001
0000
0100
0000
,
1000
0000
0100
0000
,
0010
0000
0100
0000
,
0110
0000
0000
0000
,
0110
0000
0000
0000
,
0110
0000
0000
0000
,
0110
0000
0000
0000
,
0001
0000
1000
0000
,
0100
0000
1000
0000
,
0001
0000
0010
0000
,
0001
0000
1000
0000
,
0100
0000
1000
0000
,
0010
0000
1000
0000
,
0001
0000
0010
0000
,
0001
0000
0100
0000
,
1000
0000
0100
0000
,
0001
0000
0100
0000
,
1000
0000
0001
0000
,
0001
0000
0010
0000
,
0010
0000
1000
0000
,
0100
0000
0100
0000
,
0100
0000
0100
0000
,
0100
0000
0100
0000
,
0100
0100
0100
0100
,
0010
0000
0000
0000
,
1000
0000
0001
0000
,
0100
0000
0000
0000
,
0010
0000
0100
0000
,
0001
0000
0000
0000
,
1000
0000
0010
0000
,
0001
0000
0000
1000
,
0000
0000
0010
1000
,
0020
0000
0000
0000
,
0230
0000
0000
0000
,
0300
0000
0000
0000;

//---------------dance-single - ANOTHER----------------
#NOTES:
     dance-single:
     ANOTHER:
     medium:
     4:
     0.326,0.379,0.020,0.030,0.000,220.000,2.000,3.000,0.000,0.000:

0000
0000
0000
0000
,
0000
0000
0000
0000
,
0000
0000
0000
0000
,
1000
0100
0000
0100
0000
0000
0000
0010
,
0000
0100
0000
0000
0000
0000
0000
0000
,
0001
0010
0000
0100
0000
1000
0000
0010
,
0000
0000
0000
0000
,
0100
1000
0000
0000
0000
0000
0010
1000
,
0000
0001
0010
0000
0100
0000
1000
0000
,
0010
1000
0000
0100
0000
0010
0000
0001
,
0000
1000
0000
0000
0000
0000
0000
0000
,
0010
1000
0000
0100
0000
0010
0000
0100
,
0000
0010
0000
0000
0000
0000
0000
0000
,
0001
1000
0000
0010
0000
0100
0000
0001
,
0000
0010
0000
0000
0000
0000
0000
0000
,
0001
1000
0000
0000
0001
1000
0000
0000
,
0001
1000
0000
0000
0001
0000
0000
0000
,
1000
0010
1000
0100
,
0010
0000
0001
0000
,
1000
0100
0010
0100
,
1000
0010
1000
0010
0000
0000
0000
0000
,
0001
0000
0010
0000
,
0200
0000
0010
0000
0010
0300
0000
0000
,
0010
1000
0001
0000
,
0100
0010
0000
0100
0000
0000
0000
0000
,
0010
1000
0001
0010
,
0100
1000
0010
1000
,
0001
0010
0001
0000
1000
0010
1000
0000
,
0100
1000
0100
0000
0001
0100
0001
0000
,
0010
0010
1000
0001
,
0100
0100
0010
0001
,
1000
0000
0100
0000
1000
0100
1000
0000
,
0100
1000
0100
1000
0000
0000
0000
0000
,
0010
0000
0010
0000
,
0001
0000
0000
1000
0000
0000
0000
0000
,
0010
0000
0000
0100
0000
0000
0000
0000
,
0010
0000
0000
1000
0000
0000
0000
0000
,
0001
0000
0000
0100
0000
0000
0000
0000
,
0010
0000
0000
1010
0000
0000
0000
0000
,
0001
0000
0000
0011
0000
0000
0000
0000
,
0100
0010
0000
0000
,
0100
1000
0010
0000
,
0001
0010
0100
0000
,
1000
0100
0010
0100
,
1000
0001
0001
0001
,
0001
0000
0000
1000
0000
0001
0000
0000
,
1000
0000
0000
0100
0000
0010
0000
0000
,
0001
0000
1000
0000
0010
1000
0010
0000
,
0001
0000
1000
0000
0001
0010
0001
1000
,
0100
0000
0010
0001
0000
0000
0000
0000
,
1000
0000
0010
1000
0000
0000
0001
0000
,
0010
0000
0100
1000
0000
0000
0000
0000
,
0001
0000
0010
0100
0000
0000
0000
0000
,
0001
0000
0010
0010
0000
0000
0000
0000
,
0010
0000
1000
1000
0000
0000
0000
0000
,
0100
0000
0010
0001
0000
0000
1000
0000
,
0100
0010
0001
1000
,
0010
0010
0010
0010
,
0010
1000
0000
0100
0000
0010
0000
0001
,
0000
1000
0000
0000
0010
1000
0100
0000
,
0010
0001
0000
0100
0000
0001
0000
1000
,
0000
0001
0000
0000
0100
0010
0100
0000
,
1000
0001
0000
0001
0000
0100
0000
0100
,
0000
0001
0000
0000
1000
0000
0010
0000
,
1000
0100
0000
0100
0000
0010
0000
0001
,
0000
1000
0000
0000
0010
1000
0100
0000
,
2000
0000
0000
0000
,
3002
0000
0000
0000
,
0003
0000
0000
0000;

//---------------dance-single - MANIAC----------------
#NOTES:
     dance-single:
     MANIAC:
     hard:
     3:
     0.520,0.552,0.294,0.152,0.010,315.000,29.000,15.000,0.000,0.000:

0000
0000
0000
0000
,
0000
0000
0000
0000
,
0000
0000
0000
0000
,
0000
0000
0000
0000
,
0000
0000
0000
0000
,
1000
0100
0000
0100
0000
0001
0000
0010
,
0000
0010
0000
0000
0000
0000
0000
0000
,
0010
0001
0000
0010
0001
0000
0100
0001
,
0000
0100
0001
0000
1000
0000
1001
0000
,
0010
0001
0000
0010
0000
0100
0000
1000
,
0100
0010
0100
1000
0010
1000
0100
0100
,
0010
0100
0000
0100
0000
0001
0000
0100
,
1000
0100
0001
0100
1000
0100
0001
0000
,
1000
0010
0000
0010
0000
0001
0000
0010
,
0000
1000
0000
0010
0100
1000
0100
0010
,
0100
0010
0000
0100
0000
0010
0000
1100
,
0000
0101
0000
0000
0001
1000
0001
1000
,
1000
0100
1000
0020
0000
0000
0000
0000
,
1030
0001
0010
0002
0000
0000
0000
0000
,
0103
0001
1000
0020
0000
0000
1000
0000
,
1030
0100
0010
0020
0000
0000
0000
0000
,
0031
1000
0000
1001
0000
0000
1000
0100
,
0020
0001
0000
0001
0030
0000
0000
0000
,
1000
0001
0000
0010
0000
0000
0010
0001
,
1000
0100
0000
0220
0000
0330
0000
0000
,
0100
1000
0100
1000
0000
0000
1100
0000
,
0100
0001
0100
0001
0000
0000
0101
0000
,
0010
1000
0001
1000
0000
0010
0010
0100
,
0100
0010
0100
0010
0100
0002
0103
0000
,
1000
0010
0001
0010
1000
0100
1000
0100
,
0000
0010
0001
0100
0001
0010
0001
0010
,
1000
0100
1100
0000
0001
0100
0101
0000
,
1000
0200
0010
0310
0000
0001
0001
0001
,
1001
0000
1010
0000
1000
0100
0000
0100
,
0000
1000
0100
0000
0010
0001
0000
0100
,
0010
0100
0001
0000
1000
0001
0000
0011
,
0000
0000
0010
0001
1000
0100
0000
0000
,
0110
0000
0010
0001
0000
0000
0000
1100
,
0000
1001
0000
0101
0000
0000
1000
0000
,
0100
0010
0000
0020
0000
0000
0000
0000
,
1030
0000
0000
0100
0000
0000
0010
0000
0001
0000
0000
0010
0000
0000
0100
0000
,
1000
0001
1000
0001
0000
1001
0000
0000
,
1000
0010
1000
0010
0000
1010
0000
0000
,
0100
0001
0100
0001
0000
0101
0000
0000
,
1000
0100
1000
0010
0000
0011
0000
0000
,
0010
0001
1000
0100
0000
0110
0000
0000
,
0100
1000
0100
0010
0000
1010
0000
0000
,
0010
0100
0001
0100
0000
0101
0000
0000
,
0100
0010
0100
0010
0000
0110
0000
0000
,
1000
0100
0000
0100
0010
0000
0001
0010
,
0001
1000
0000
1000
0001
0000
1001
0000
,
0001
0010
0000
0010
0100
0000
0100
1000
,
0100
0010
0000
0010
0001
0000
0110
0000
,
1000
0001
0010
0002
0000
0000
1003
0000
,
1000
0001
0010
0002
0000
0000
1003
0000
,
1000
0100
1000
2000
0000
0000
0010
0000
,
3100
0000
0100
0000
0010
0001
1000
0000
,
0100
0010
0110
0110
,
1000
0100
0000
0100
0000
0001
0000
0010
,
0000
0010
0000
0000
0000
0000
0000
0000
,
0010
0001
0000
0010
0001
0000
0100
0001
,
0000
0100
0001
0000
1000
0000
1001
0000
,
0010
0001
0000
0010
0000
0100
0000
1000
,
0100
0010
0100
1000
0010
1000
0100
0100
,
0010
0100
0000
0100
0000
0001
0000
0100
,
1000
0100
0001
0100
1000
0100
0001
0000
,
1000
0100
1000
0002
0000
0000
0000
0000
,
2003
0000
0000
0000
,
3000
0000
0000
0000;
